Credits to blogspot.com

Abbonamenti Premium - scarica più velocemente

Al Calare delle Tenebre (2003) .mkv BluRay 720p AC3 - ITA ENG

Titolo Originale: Darkness Falls
Nazionalita : Usa
Anno : 2003
Genere : Horror/Thriller
Durata : 85
Regia : Jonathan Liebesman

Al Calare delle Tenebre (2003) .mkv BluRay 720p AC3 - ITA ENG

Kyle Walsh (Chaney Kley) deve tornare a casa per affrontare il suo tormentato passato e salvare la sua ragazza d'infanzia e il giovane fratello da un'implacabile forza demoniaca che infesta la città di Darkness Falls da oltra 150 anni.

Al Calare delle Tenebre (2003) .mkv BluRay 720p AC3 - ITA ENG

Chaney Kley, Emma Caulfield, Andrew Bayly, Emily Browning, Joshua Anderson

Al Calare delle Tenebre (2003) .mkv BluRay 720p AC3 - ITA ENG Al Calare delle Tenebre (2003) .mkv BluRay 720p AC3 - ITA ENG
Al Calare delle Tenebre (2003) .mkv BluRay 720p AC3 - ITA ENG Al Calare delle Tenebre (2003) .mkv BluRay 720p AC3 - ITA ENG

Al Calare delle Tenebre (2003) .mkv BluRay 720p AC3 - ITA ENG

Dimensione: 4 gb
Nome Versione: VaRieD
Fonte Video: PSYCHD
Formato Audio: AC3 5.1
Fonte Audio: DVD
Lingua: Italiano / Inglese
Sottotitoli: Italiano / Inglese Forced: Si
Sincronia A/V: Testata OK

Spoiler :

General
Unique ID : 240061701463193074415797358689496488194 (0xB49A33B2009E1B7BA2CCEA10D45E5902)
Complete name : \Darkness.Falls.2003.720p.BluRay.x264.ITA.ENG-VaRieD.mkv
Format : Matroska
Format version : Version 2
File size : 4.06 GiB
Duration : 1h 22mn
Overall bit rate : 7 067 Kbps
Encoded date : UTC 2011-12-19 15:14:46
Writing application : mkvmerge v5.0.1 ('Es ist Sommer') built on Oct 9 2011 11:55:43
Writing library : libebml v1.2.2 + libmatroska v1.3.0

Video
ID : 1
Format : AVC
Format/Info : Advanced Video Codec
Format profile : High@L4.1
Format settings, CABAC : Yes
Format settings, ReFrames : 5 frames
Codec ID : V_MPEG4/ISO/AVC
Duration : 1h 22mn
Bit rate : 5 794 Kbps
Width : 1 280 pixels
Height : 528 pixels
Display aspect ratio : 2.40:1
Frame rate : 25.000 fps
Original frame rate : 23.976 fps
Color space : YUV
Chroma subsampling : 4:2:0
Bit depth : 8 bits
Scan type : Progressive
Bits/(Pixel*Frame) : 0.343
Stream size : 3.39 GiB (84%)
Writing library : x264 core 118 r2085 8a62835
Encoding settings : cabac=1 / ref=5 / deblock=1:0:0 / analyse=0x3:0x113 / me=umh / subme=8 / psy=1 / psy_rd=1.00:0.00 / mixed_ref=1 / me_range=16 / chroma_me=1 / trellis=1 / 8x8dct=1 / cqm=0 / deadzone=21,11 / fast_pskip=1 / chroma_qp_offset=-2 / threads=12 / sliced_threads=0 / nr=0 / decimate=1 / interlaced=0 / bluray_compat=0 / constrained_intra=0 / bframes=3 / b_pyramid=2 / b_adapt=2 / b_bias=0 / direct=3 / weightb=1 / open_gop=0 / weightp=2 / keyint=240 / keyint_min=24 / scenecut=40 / intra_refresh=0 / rc_lookahead=50 / rc=2pass / mbtree=1 / bitrate=5794 / ratetol=1.0 / qcomp=0.60 / qpmin=0 / qpmax=69 / qpstep=4 / cplxblur=20.0 / qblur=0.5 / ip_ratio=1.40 / aq=1:1.00
Language : English

Audio #1
ID : 2
Format : AC-3
Format/Info : Audio Coding 3
Mode extension : CM (complete main)
Codec ID : A_AC3
Duration : 1h 22mn
Bit rate mode : Constant
Bit rate : 384 Kbps
Channel(s) : 6 channels
Channel positions : Front: L C R, Side: L R, LFE
Sampling rate : 48.0 KHz
Bit depth : 16 bits
Compression mode : Lossy
Delay relative to video : 80ms
Stream size : 226 MiB (5%)
Title : Italiano - delay 80
Language : Italian

Audio #2
ID : 3
Format : AC-3
Format/Info : Audio Coding 3
Mode extension : CM (complete main)
Codec ID : A_AC3
Duration : 1h 22mn
Bit rate mode : Constant
Bit rate : 640 Kbps
Channel(s) : 6 channels
Channel positions : Front: L C R, Side: L R, LFE
Sampling rate : 48.0 KHz
Bit depth : 16 bits
Compression mode : Lossy
Stream size : 376 MiB (9%)
Title : Inglese
Language : English

Text #1
ID : 4
Format : UTF-8
Codec ID : S_TEXT/UTF8
Codec ID/Info : UTF-8 Plain Text
Title : Italiano Forced
Language : Italian

Text #2
ID : 5
Format : UTF-8
Codec ID : S_TEXT/UTF8
Codec ID/Info : UTF-8 Plain Text
Title : Italiano
Language : Italian

Text #3
ID : 6
Format : UTF-8
Codec ID : S_TEXT/UTF8
Codec ID/Info : UTF-8 Plain Text
Title : Italiano Commento Regista
Language : Italian

Text #4
ID : 7
Format : UTF-8
Codec ID : S_TEXT/UTF8
Codec ID/Info : UTF-8 Plain Text
Title : Inglese
Language : English

Menu
00:00:00.000 : en:00:00:00.000
00:04:30.937 : en:00:04:30.937
00:09:55.178 : en:00:09:55.178
00:15:09.534 : en:00:15:09.534
00:21:19.445 : en:00:21:19.445
00:25:02.459 : en:00:25:02.459
00:29:27.683 : en:00:29:27.683
00:33:53.198 : en:00:33:53.198
00:37:33.668 : en:00:37:33.668
00:43:53.047 : en:00:43:53.047
00:46:33.040 : en:00:46:33.040
00:49:31.969 : en:00:49:31.969
00:55:11.391 : en:00:55:11.391
01:00:46.142 : en:01:00:46.142
01:04:09.095 : en:01:04:09.095
01:09:31.501 : en:01:09:31.501


Al Calare delle Tenebre (2003) .mkv BluRay 720p AC3 - ITA ENG

Informazioni di recupero presenti al 5%
I file REV sono da scaricarsi solo in caso di pack offline
Se compare errore CRC durante l'estrazione, riscaricare quei pack
Per incollare le folder in JD, cliccare su aggiungi link in JD, al
messaggio cliccare su continua, appareranno i link. Si consiglia l'uso di JD2.

Al Calare delle Tenebre (2003) .mkv BluRay 720p AC3 - ITA ENG
http://ncrypt.in/folder-GVmWZTgB

Al Calare delle Tenebre (2003) .mkv BluRay 720p AC3 - ITA ENG
http://www.sharpfile.com/folder/fvc4z7xn8rw3

Al Calare delle Tenebre (2003) .mkv BluRay 720p AC3 - ITA ENG
http://www.henchfile.com/users/gaudenzio/974/DARK1

REV
http://filevelocity.com/kxdbypgn9hnf/DARK1.part01.rev
http://filevelocity.com/2x3snry48eg0/DARK1.part02.rev

Visite:
Visite:

Vota questo post:

{[['']]}




1080p

720p

Post 3D

Giochi PC

  • Posts
  • Commenti
  • Visite